Fantastic Beasts The Crimes of Grindelwald (2018) 720p English HD...

seeders: 248
leechers: 49
updated:
Added by ictv in Other


# LIMITED VPN OFFER #
strongly advises you to use NordVPN while downloading torrents.
NordVPN is the safest VPN on the market, and the fastest VPN as well.
No IP Log is saved using NordVPN, avoid other VPN providers and choose the safest one.
Click here and buy NordVPN it's on rebates today!
We were able to verify your IP: 176.99.4.10, country: Russian Federation.
If we can do that, others can too, protect your privacy with NordVPN.
is trying the best for you!
# LIMITED VPN OFFER #


Description

Our Site www.movcr.cc 


Fantastic Beasts The Crimes of Grindelwald (2018) 720p English HDCAMRip x264 AAC 850MB [MovCr]  


http://www.imdb.com/title/tt4123430/ 

 


General
Unique ID : 291907246561910318032287342401543402832 (0xDB9B4A6C36E4A89A39FEFF85FA26F550)
Complete name : www.MovCr.cc - Fantastic Beasts The Crimes of Grindelwald (2018) 720p English HDCAMRip x264 AAC 850MB [MovCr].mkv
Format : Matroska
Format version : Version 4 / Version 2
File size : 865 MiB
Duration : 2 h 5 min
Overall bit rate : 964 kb/s
Movie name : www.MovCr.cc
Encoded date : UTC 2018-11-16 13:41:28
Writing application : mkvmerge v26.0.0 ('In The Game') 64-bit
Writing library : libebml v1.3.6 + libmatroska v1.4.9

Video
ID : 1
Format : AVC
Format/Info : Advanced Video Codec
Format profile : [email protected] 
Format settings : CABAC / 4 Ref Frames
Format settings, CABAC : Yes
Format settings, RefFrames : 4 frames
Codec ID : V_MPEG4/ISO/AVC
Duration : 2 h 5 min
Bit rate : 880 kb/s
Width : 1 280 pixels
Height  : 536 pixels
Display aspect ratio : 2.40:1
Frame rate mode : Constant
Frame rate : 29.970 (30000/1001) FPS
Color space : YUV
Chroma subsampling : 4:2:0
Bit depth : 8 bits
Scan type : Progressive
Bits/(Pixel*Frame) : 0.043
Stream size : 790 MiB (91%)
Title : www.MovCr.cc
Writing library : x264 core 155 r2901 7d0ff22
Encoding settings : cabac=1 / ref=2 / deblock=1:0:0 / analyse=0x3:0x113 / me=hex / subme=6 / psy=1 / psy_rd=1.00:0.00 / mixed_ref=1 / me_range=16 / chroma_me=1 / trellis=1 / 8x8dct=1 / cqm=0 / deadzone=21,11 / fast_pskip=1 / chroma_qp_offset=-2 / threads=12 / lookahead_threads=2 / sliced_threads=0 / nr=0 / decimate=1 / interlaced=0 / bluray_compat=0 / constrained_intra=0 / bframes=3 / b_pyramid=2 / b_adapt=1 / b_bias=0 / direct=1 / weightb=1 / open_gop=0 / weightp=1 / keyint=300 / keyint_min=30 / scenecut=40 / intra_refresh=0 / rc_lookahead=30 / rc=abr / mbtree=1 / bitrate=880 / ratetol=1.0 / qcomp=0.60 / qpmin=0 / qpmax=69 / qpstep=4 / vbv_maxrate=25000 / vbv_bufsize=25000 / nal_hrd=none / filler=0 / ip_ratio=1.40 / aq=1:1.00
Default : Yes
Forced : No
Color range : Limited
Color primaries : BT.601 NTSC
Transfer characteristics : BT.709
Matrix coefficients : BT.601

Audio
ID : 2
Format : AAC
Format/Info : Advanced Audio Codec
Format profile : LC
Codec ID : A_AAC-2
Duration : 2 h 5 min
Bit rate : 80.2 kb/s
Channel(s) : 2 channels
Channel positions : Front: L R
Sampling rate : 48.0 kHz
Frame rate : 46.875 FPS (1024 SPF)
Compression mode : Lossy
Delay relative to video : -21 ms
Stream size : 72.0 MiB (8%)
Title : www.MovCr.cc
Default : Yes
Forced : No

  

 
 
 
 
 
 

Sharing Widget


Download torrent
Size: 864.6 MB
seeders:248
leechers:49
Fantastic Beasts The Crimes of Grindelwald (2018) 720p English HD... - (906598809 Bytes)



To share this torrent use the code below and insert it into comments, status messages, forum posts or your signature.

Torrent: Fantastic Beasts The Crimes of Grindelwald (2018) 720p English HD...

Trackers

tracker name
udp://tracker.coppersurfer.tk:6969/announce
udp://tracker.opentrackr.org:1337/announce
udp://tracker.leechers-paradise.org:6969/announce
udp://9.rarbg.to:2800/announce
udp://9.rarbg.to:2800/announce
udp://eddie4.nl:6969/announce
udp://9.rarbg.to:2800/announce
udp://9.rarbg.to:2800/announce
udp://tracker.doko.moe:6969/announce
udp://tracker.doko.moe:6969/announce
udp://thetracker.org:80/announce
udp://thetracker.org:80/announce
udp://bt.xxx-tracker.com:2710/announce
udp://bt.xxx-tracker.com:2710/announce
udp://tracker.zer0day.to:1337/announce
udp://tracker.leechers-paradise.org:6969/announce
udp://coppersurfer.tk:6969/announce
ĀµTorrent compatible trackers list

Locations

name
KickassTorrents
Torrent hash: 658A05C4A820B22505B2AE48965A8B4FA060AEA1

# LIMITED VPN OFFER #
strongly advises you to use NordVPN while downloading torrents.
NordVPN is the safest VPN on the market, and the fastest VPN as well.
No IP Log is saved using NordVPN, avoid other VPN providers and choose the safest one.
Click here and buy NordVPN it's on rebates today!
We were able to verify your IP: 176.99.4.10, country: Russian Federation.
If we can do that, others can too, protect your privacy with NordVPN.
is trying the best for you!
# LIMITED VPN OFFER #


All Comments

*comments box temporarily disabled*
Report a bug